<?xml version="1.0" standalone="no"?>
<!DOCTYPE svg PUBLIC "-//W3C//DTD SVG 1.1//EN" "http://www.w3.org/Graphics/SVG/1.1/DTD/svg11.dtd">
<svg xmlns="http://www.w3.org/2000/svg">
<defs >
<font id="Inter" horiz-adv-x="1201" ><font-face
    font-family="Inter"
    units-per-em="2048"
    panose-1="2 0 5 3 0 0 0 2 0 4"
    ascent="1984"
    descent="-494"
    alphabetic="0" />
<glyph unicode=" " horiz-adv-x="576" />
<glyph unicode="!" horiz-adv-x="589" d="M204 479L192 1490H396L383 479H204ZM295 -13Q239 -13 200 26T160 121Q160 177 199 216T295 256Q351 256 390 217T429 121Q429 66 390 27T295 -13Z" />
<glyph unicode="&quot;" horiz-adv-x="954" d="M232 923L210 1490H404L382 923H232ZM572 923L550 1490H744L722 923H572Z" />
<glyph unicode="#" horiz-adv-x="1297" d="M711 0L957 1490H1108L864 0H711ZM34 411L59 561H1175L1150 411H34ZM189 0L433 1490H584L340 0H189ZM122 927L147 1079H1261L1238 927H122Z" />
<glyph unicode="$" horiz-adv-x="1314" d="M597 -218V1708H717V-218H597ZM657 -26Q496 -26 378 26T192 171T116 390H311Q319 306 368 252T493 171T657 144Q758 144 838 177T966 270T1013 409Q1013 481 973 526T865 600T718 651L538 702Q358 753 258 848T158 1091Q158
1217 226 1311T410 1458T670 1510Q817 1510 930 1458T1108 1317T1178 1114H992Q979 1223 888 1282T664 1342Q568 1342 496 1311T383 1225T343 1100Q343 1022 391 975T506 901T627 859L776 818Q836 802 908 774T1047 700T1155 582T1198 406Q1198 284 1135 186T950
31T657 -26Z" />
<glyph unicode="%" horiz-adv-x="2011" d="M523 831Q428 831 363 872T264 983T230 1134V1212Q230 1294 264 1362T363 1472T523 1514Q619 1514 683 1473T781 1363T814 1212V1134Q814 1052 781 983T683 873T523 831ZM523 962Q599 962 630 1014T661 1134V1212Q661
1278 631 1331T523 1384Q448 1384 416 1331T383 1212V1134Q383 1067 414 1015T523 962ZM1490 -29Q1395 -29 1330 12T1231 123T1197 274V352Q1197 434 1231 502T1330 612T1490 654Q1586 654 1651 613T1748 503T1781 352V274Q1781 192 1748 123T1650 13T1490 -29ZM1490
102Q1566 102 1597 154T1628 274V352Q1628 418 1598 471T1490 524Q1415 524 1383 471T1350 352V274Q1350 207 1381 155T1490 102ZM404 0L1428 1490H1597L573 0H404Z" />
<glyph unicode="&amp;" horiz-adv-x="1319" d="M580 -20Q433 -20 326 34T162 181T104 389Q104 487 144 558T254 690T414 817L635 980Q662 1000 694 1028T748 1095T771 1186Q771 1257 724 1303T595 1349Q539 1349 496 1326T430 1263T406 1168Q406 1112 431 1061T501
955T601 832L1287 0H1070L505 678Q425 775 362 851T262 1003T225 1167Q225 1266 270 1342T397 1461T590 1504Q702 1504 783 1461T908 1345T952 1183Q952 1115 927 1057T857 950T754 858L456 637Q364 569 327 511T289 383Q289 310 324 255T422 168T567 137Q656 137
738 173T885 278T988 442T1026 658H1199Q1199 510 1165 415T1088 265T1015 182L979 137Q906 58 797 19T580 -20Z" />
<glyph unicode="&apos;" horiz-adv-x="614" d="M232 923L210 1490H404L382 923H232Z" />
<glyph unicode="(" horiz-adv-x="747" d="M218 607Q218 770 251 948T343 1292T476 1581H651Q574 1424 518 1254T431 919T401 607Q401 474 427 338T509 51T651 -279H476Q349 -62 284 163T218 607Z" />
<glyph unicode=")" horiz-adv-x="747" d="M96 -279Q185 -96 240 56T320 344T346 607Q346 753 316 918T230 1254T96 1581H271Q346 1458 404 1293T496 948T529 607Q529 384 463 159T271 -279H96Z" />
<glyph unicode="*" horiz-adv-x="1026" d="M441 652L454 969L186 798L114 924L396 1070L114 1216L186 1344L454 1173L441 1490H585L573 1173L840 1344L912 1216L630 1070L912 924L840 798L573 969L585 652H441Z" />
<glyph unicode="+" horiz-adv-x="1355" d="M593 100V1066H762V100H593ZM195 504V663H1160V504H195Z" />
<glyph unicode="," horiz-adv-x="590" d="M128 -359L216 208H422L266 -359H128Z" />
<glyph unicode="-" horiz-adv-x="942" d="M798 719V553H144V719H798Z" />
<glyph unicode="." horiz-adv-x="590" d="M295 -13Q239 -13 200 26T160 122Q160 178 199 217T295 257Q351 257 390 218T430 122Q430 66 391 27T295 -13Z" />
<glyph unicode="/" horiz-adv-x="738" d="M692 1560L212 -224H46L526 1560H692Z" />
<glyph unicode="0" horiz-adv-x="1292" d="M646 -20Q480 -20 363 70T184 330T122 744Q122 986 184 1157T364 1419T646 1510Q811 1510 928 1419T1108 1157T1170 744Q1170 502 1109 331T930 70T646 -20ZM646 146Q755 146 831 217T947 421T987 744Q987 934 947 1068T831
1274T646 1345Q537 1345 461 1274T345 1068T305 744Q305 555 345 422T461 217T646 146Z" />
<glyph unicode="1" horiz-adv-x="833" d="M653 1490V0H466V1314H456L96 1047V1251L420 1490H653Z" />
<glyph unicode="2" horiz-adv-x="1249" d="M154 0V137L649 674Q732 764 787 832T870 961T898 1092Q898 1170 861 1227T761 1314T618 1345Q533 1345 471 1311T374 1214T340 1067H158Q158 1199 219 1299T385 1454T623 1510Q756 1510 858 1455T1019 1305T1078 1094Q1078
1013 1049 937T947 763T742 526L416 179V167H1103V0H154Z" />
<glyph unicode="3" horiz-adv-x="1265" d="M635 -20Q489 -20 376 30T197 169T125 376H317Q323 305 365 254T477 175T632 147Q726 147 798 179T913 271T955 407Q955 488 915 549T797 646T609 681H488V846H609Q696 846 762 877T866 966T903 1100Q903 1174 871 1229T778
1314T637 1345Q561 1345 495 1318T386 1239T340 1115H157Q161 1232 227 1321T401 1460T641 1510Q780 1510 880 1454T1035 1307T1089 1110Q1089 984 1023 896T842 774V762Q937 747 1004 698T1107 574T1143 405Q1143 283 1077 187T896 36T635 -20Z" />
<glyph unicode="4" horiz-adv-x="1323" d="M120 303V458L772 1490H887V1252H810L323 482V470H1205V303H120ZM821 0V349L822 422V1490H1003V0H821Z" />
<glyph unicode="5" horiz-adv-x="1215" d="M596 -20Q465 -20 361 31T195 172T128 376H312Q318 310 357 258T458 177T596 147Q686 147 756 189T867 305T907 473Q907 569 865 645T751 764T584 808Q515 808 444 786T329 730L151 752L239 1490H1023V1323H399L348 888H356Q402
926 472 950T619 975Q721 975 807 938T958 834T1057 675T1093 476Q1093 333 1029 221T852 45T596 -20Z" />
<glyph unicode="6" horiz-adv-x="1270" d="M646 -20Q553 -20 460 14T291 128T168 345T122 688Q122 885 159 1037T268 1295T441 1455T669 1510Q794 1510 893 1460T1055 1321T1136 1115H950Q925 1212 855 1277T669 1342Q555 1342 473 1275T346 1082T302 776H314Q354
838 410 882T535 950T681 974Q809 974 915 911T1084 737T1148 481Q1148 342 1086 229T911 48T646 -20ZM646 147Q736 147 808 192T922 312T964 481Q964 572 924 646T812 765T651 809Q583 809 525 783T422 710T354 604T329 479Q329 391 370 316T483 194T646 147Z"
/>
<glyph unicode="7" horiz-adv-x="1159" d="M200 0L862 1311V1323H98V1490H1061V1313L400 0H200Z" />
<glyph unicode="8" horiz-adv-x="1267" d="M633 -20Q482 -20 367 33T187 181T122 396Q122 490 160 570T264 705T413 774V782Q304 810 240 903T176 1114Q176 1228 235 1317T397 1458T633 1510Q764 1510 867 1459T1029 1318T1089 1114Q1089 996 1025 903T854 782V774Q935
759 1001 705T1106 571T1145 396Q1145 275 1080 181T899 34T633 -20ZM633 145Q732 145 804 177T915 268T955 406Q955 489 913 552T798 652T633 689Q539 689 466 653T351 553T309 406Q309 327 348 269T460 178T633 145ZM633 848Q712 848 773 879T869 968T905 1100Q905
1175 871 1230T776 1315T633 1346Q551 1346 490 1316T394 1230T360 1100Q360 1025 394 968T491 880T633 848Z" />
<glyph unicode="9" horiz-adv-x="1270" d="M603 -20Q476 -20 377 30T215 170T134 379H322Q345 280 415 214T603 148Q717 148 799 215T925 409T970 716H958Q918 655 862 611T738 542T591 517Q463 517 356 580T186 755T122 1010Q122 1149 185 1263T361 1445T628
1510Q720 1509 812 1475T980 1361T1102 1146T1148 804Q1148 606 1111 453T1002 195T830 35T603 -20ZM619 683Q687 683 746 710T849 783T918 889T943 1015Q943 1101 902 1175T789 1296T625 1343Q535 1343 464 1299T350 1179T308 1011Q308 920 348 846T459 727T619
683Z" />
<glyph unicode=":" horiz-adv-x="590" d="M295 -13Q239 -13 200 26T160 122Q160 178 199 217T295 257Q351 257 390 218T430 122Q430 66 391 27T295 -13ZM295 796Q239 796 200 835T160 931Q160 987 199 1026T295 1066Q351 1066 390 1027T430 931Q430 875 391 836T295 796Z" />
<glyph unicode=";" horiz-adv-x="618" d="M128 -359L216 208H422L266 -359H128ZM323 796Q267 796 228 835T188 931Q188 987 227 1026T323 1066Q379 1066 418 1027T458 931Q458 875 419 836T323 796Z" />
<glyph unicode="&lt;" horiz-adv-x="1355" d="M174 520V646L1118 1122V926L400 585L406 597V569L400 579L1118 238V44L174 520Z" />
<glyph unicode="=" horiz-adv-x="1355" d="M226 717V883H1130V717H226ZM226 283V449H1130V283H226Z" />
<glyph unicode="&gt;" horiz-adv-x="1355" d="M1181 520L237 44V238L956 579L949 569V597L956 585L237 926V1122L1181 646V520Z" />
<glyph unicode="?" horiz-adv-x="1047" d="M383 449V460Q383 597 409 671T486 789T605 874Q671 914 716 975T761 1124Q761 1194 729 1244T641 1323T518 1351Q459 1351 405 1327T314 1250T272 1115H82Q87 1241 146 1329T303 1463T518 1510Q648 1510 743 1460T892
1320T945 1117Q945 996 892 910T742 765Q678 726 639 690T582 601T564 460V449H383ZM476 -13Q420 -13 381 26T341 121Q341 177 380 216T476 256Q532 256 571 217T610 121Q610 66 571 27T476 -13Z" />
<glyph unicode="@" horiz-adv-x="1978" d="M1044 -395Q821 -395 649 -334T360 -156T182 133T122 525Q122 738 183 907T360 1194T644 1375T1023 1438Q1229 1438 1384 1372T1645 1192T1803 935T1856 640Q1856 533 1845 426T1800 229T1697 85T1512 30Q1460 30 1399
46T1292 99T1236 198H1228Q1202 134 1135 86T955 37Q822 37 733 103T598 281T552 535Q552 669 605 775T752 942T965 1004Q1061 1004 1125 969T1217 896H1227V980H1385V321Q1385 261 1418 216T1516 171Q1589 171 1628 221T1682 375T1697 642Q1697 766 1656 882T1530
1092T1318 1239T1017 1294Q845 1294 710 1242T481 1089T338 846T289 520Q289 336 338 193T484 -49T723 -199T1051 -250Q1131 -250 1207 -235T1344 -202T1433 -173L1476 -313Q1430 -332 1358 -351T1203 -382T1044 -395ZM962 190Q1059 190 1118 229T1205 346T1233
543Q1233 663 1203 730T1114 825T967 853Q885 853 827 811T738 698T707 543Q707 451 732 370T813 240T962 190Z" />
<glyph unicode="A" horiz-adv-x="1413" d="M52 0L593 1490H813L1361 0H1161L845 884Q816 966 778 1088T684 1401H720Q666 1209 627 1085T561 884L254 0H52ZM324 416V582H1089V416H324Z" />
<glyph unicode="B" horiz-adv-x="1340" d="M180 0V1490H708Q864 1490 965 1437T1116 1294T1166 1095Q1166 999 1132 937T1043 837T922 782V768Q992 764 1061 720T1177 595T1224 397Q1224 285 1173 195T1011 53T725 0H180ZM370 168H720Q894 168 967 235T1041 399Q1041
474 1003 537T896 638T730 676H370V168ZM370 836H698Q778 836 843 867T946 956T984 1091Q984 1188 917 1255T704 1322H370V836Z" />
<glyph unicode="C" horiz-adv-x="1496" d="M783 -20Q592 -20 443 72T208 336T122 744Q122 981 207 1152T442 1417T783 1510Q896 1510 996 1477T1177 1381T1310 1227T1384 1021H1194Q1178 1098 1140 1156T1046 1254T923 1314T783 1334Q649 1334 541 1266T370 1067T307
744Q307 554 370 423T542 224T783 156Q856 156 923 176T1045 236T1139 334T1194 469H1384Q1365 355 1312 265T1178 111T998 14T783 -20Z" />
<glyph unicode="D" horiz-adv-x="1478" d="M645 0H285V168H633Q815 168 934 237T1113 437T1172 748Q1172 927 1114 1055T940 1253T651 1322H277V1490H664Q882 1490 1036 1401T1273 1146T1356 748Q1356 515 1273 348T1031 90T645 0ZM370 1490V0H180V1490H370Z" />
<glyph unicode="E" horiz-adv-x="1231" d="M180 0V1490H1088V1322H370V836H1039V668H370V168H1097V0H180Z" />
<glyph unicode="F" horiz-adv-x="1209" d="M180 0V1490H1081V1322H370V812H1013V644H370V0H180Z" />
<glyph unicode="G" horiz-adv-x="1528" d="M789 -20Q590 -20 440 73T206 337T122 744Q122 981 206 1152T438 1417T777 1510Q895 1510 997 1475T1181 1375T1315 1221T1389 1023H1193Q1170 1095 1132 1152T1042 1250T923 1312T778 1334Q647 1334 540 1267T370 1068T307
744Q307 554 370 423T543 224T789 156Q915 156 1011 209T1160 361T1214 594L1271 583H828V749H1400V586Q1400 401 1321 265T1105 55T789 -20Z" />
<glyph unicode="H" horiz-adv-x="1522" d="M180 0V1490H370V846H1152V1490H1342V0H1152V678H370V0H180Z" />
<glyph unicode="I" horiz-adv-x="550" d="M370 1490V0H180V1490H370Z" />
<glyph unicode="J" horiz-adv-x="1169" d="M545 -20Q348 -20 224 96T100 426V506H290V426Q290 290 360 219T545 147Q659 147 729 218T799 426V1490H989V426Q989 212 866 96T545 -20Z" />
<glyph unicode="K" horiz-adv-x="1376" d="M310 426V629Q361 699 411 763T515 888T624 1009L1069 1490H1318L682 808L672 809L310 426ZM180 0V1490H370V980L367 659L370 566V0H180ZM1094 0L555 758L673 906L1319 0H1094Z" />
<glyph unicode="L" horiz-adv-x="1158" d="M180 0V1490H370V168H1060V0H180Z" />
<glyph unicode="M" horiz-adv-x="1850" d="M180 0V1490H450L817 550Q830 517 846 468T881 360T917 245T947 138H905Q919 184 936 240T971 355T1007 465T1037 550L1399 1490H1670V0H1483V851Q1483 897 1483 956T1485 1080T1488 1212T1491 1342H1507Q1486 1273 1463
1202T1417 1064T1374 942T1340 851L1007 0H842L504 851Q490 886 471 939T430 1058T383 1196T334 1342H352Q354 1286 355 1221T358 1090T360 962T361 851V0H180Z" />
<glyph unicode="N" horiz-adv-x="1543" d="M180 0V1490H404L1010 537Q1034 500 1068 442T1141 311T1219 155H1192Q1183 241 1179 319T1174 464T1173 576V1490H1363V0H1137L597 848Q560 907 523 969T437 1117T318 1329H353Q358 1218 362 1124T368 960T371 850V0H180Z" />
<glyph unicode="O" horiz-adv-x="1566" d="M784 -20Q593 -20 444 72T208 336T122 744Q122 981 208 1152T443 1417T784 1510Q975 1510 1124 1417T1358 1153T1444 744Q1444 508 1359 337T1124 73T784 -20ZM784 156Q917 156 1024 223T1195 422T1259 744Q1259 936
1196 1067T1025 1266T784 1334Q650 1334 542 1266T371 1067T307 744Q307 554 370 423T542 224T784 156Z" />
<glyph unicode="P" horiz-adv-x="1308" d="M180 0V1490H690Q864 1490 976 1427T1143 1256T1198 1016Q1198 883 1144 775T977 603T691 539H330V706H682Q800 706 872 746T976 857T1009 1016Q1009 1104 977 1173T872 1283T680 1323H370V0H180Z" />
<glyph unicode="Q" horiz-adv-x="1566" d="M722 466H920L1086 248L1128 190L1376 -140H1178L1016 78L974 134L722 466ZM784 -20Q593 -20 444 72T208 336T122 744Q122 981 208 1152T443 1417T784 1510Q975 1510 1124 1417T1358 1153T1444 744Q1444 508 1359 337T1124
73T784 -20ZM784 156Q917 156 1024 223T1195 422T1259 744Q1259 936 1196 1067T1025 1266T784 1334Q650 1334 542 1266T371 1067T307 744Q307 554 370 423T542 224T784 156Z" />
<glyph unicode="R" horiz-adv-x="1318" d="M180 0V1490H690Q864 1490 976 1431T1143 1267T1198 1030Q1198 897 1144 795T977 636T691 578H286V747H682Q800 747 871 781T976 879T1009 1030Q1009 1119 976 1184T871 1286T680 1323H370V0H180ZM1036 0L676 671H890L1256
0H1036Z" />
<glyph unicode="S" horiz-adv-x="1314" d="M657 -26Q496 -26 378 26T192 171T116 390H311Q319 306 368 252T493 171T657 144Q758 144 838 177T966 270T1013 409Q1013 481 973 526T865 600T718 651L538 702Q358 753 258 848T158 1091Q158 1217 226 1311T410 1458T670
1510Q817 1510 930 1458T1108 1317T1178 1114H992Q979 1223 888 1282T664 1342Q568 1342 496 1311T383 1225T343 1100Q343 1022 391 975T506 901T627 859L776 818Q836 802 908 774T1047 700T1155 582T1198 406Q1198 284 1135 186T950 31T657 -26Z" />
<glyph unicode="T" horiz-adv-x="1322" d="M98 1322V1490H1224V1322H757V0H567V1322H98Z" />
<glyph unicode="U" horiz-adv-x="1524" d="M763 -24Q587 -24 456 45T252 234T180 507V1490H370V522Q370 415 417 332T553 200T763 152Q885 152 972 200T1107 331T1154 522V1490H1344V507Q1344 354 1272 234T1070 45T763 -24Z" />
<glyph unicode="V" horiz-adv-x="1413" d="M600 0L52 1490H252L567 606Q594 530 634 403T729 90H692Q746 281 786 405T852 606L1159 1490H1361L819 0H600Z" />
<glyph unicode="W" horiz-adv-x="2018" d="M458 0L52 1490H246L482 576Q501 503 518 428T551 275T581 115H558Q573 197 589 274T623 427T660 576L901 1490H1117L1356 576Q1376 503 1393 428T1428 275T1460 115H1434Q1449 197 1465 274T1499 427T1535 576L1770
1490H1966L1558 0H1337L1081 944Q1056 1036 1033 1144T988 1395H1028Q1006 1261 985 1156T935 944L680 0H458Z" />
<glyph unicode="X" horiz-adv-x="1397" d="M57 0L640 833V692L90 1490H310L525 1174Q573 1104 603 1056T659 962T717 852H684Q716 915 741 961T798 1055T878 1174L1097 1490H1312L763 700V840L1340 0H1121L860 378Q818 440 789 484T735 573T679 680H720Q690 621
665 577T610 487T536 378L273 0H57Z" />
<glyph unicode="Y" horiz-adv-x="1390" d="M600 0V610L52 1490H272L567 1009Q617 928 655 855T735 669H659Q700 783 739 857T825 1009L1119 1490H1338L790 610V0H600Z" />
<glyph unicode="Z" horiz-adv-x="1288" d="M130 0V134L796 1125Q841 1192 892 1259T994 1393L1015 1331Q923 1325 830 1324T645 1322H122V1490H1158V1354L502 379Q454 308 401 237T294 97L273 159Q365 165 456 166T640 168H1166V0H130Z" />
<glyph unicode="[" horiz-adv-x="747" d="M226 -279V1581H624V1428H398V-126H624V-279H226Z" />
<glyph unicode="\" horiz-adv-x="738" d="M526 -224L46 1560H212L692 -224H526Z" />
<glyph unicode="]" horiz-adv-x="747" d="M123 -279V-126H349V1428H123V1581H521V-279H123Z" />
<glyph unicode="^" horiz-adv-x="965" d="M456 1360H508V1285H456V1360ZM82 814L383 1443H582L883 814H706L475 1315H490L261 814H82Z" />
<glyph unicode="_" horiz-adv-x="934" d="M934 0V-166H0V0H934Z" />
<glyph unicode="`" horiz-adv-x="661" d="M343 1264L150 1558H351L491 1264H343Z" />
<glyph unicode="a" horiz-adv-x="1150" d="M471 -26Q365 -26 279 14T141 131T90 318Q90 414 128 474T229 568T370 620T525 647Q625 660 688 667T781 691T812 749V755Q812 825 786 873T708 948T578 974Q498 974 441 949T349 887T295 810L122 867Q165 969 238 1026T399
1108T573 1132Q629 1132 700 1119T838 1065T948 947T992 737V0H815V152H803Q784 113 742 72T633 2T471 -26ZM502 133Q602 133 671 172T776 273T812 404V559Q801 546 764 536T680 517T588 504T517 495Q452 487 396 468T305 411T271 309Q271 251 301 212T383 153T502
133Z" />
<glyph unicode="b" horiz-adv-x="1254" d="M677 -24Q571 -24 506 12T406 95T352 173H332V0H158V1490H338V939H352Q371 969 405 1014T503 1096T676 1132Q816 1132 922 1062T1089 863T1150 556Q1150 378 1090 248T924 47T677 -24ZM650 137Q755 137 825 193T931 345T967
558Q967 674 932 767T827 916T650 971Q547 971 477 919T372 775T336 558Q336 434 372 339T478 191T650 137Z" />
<glyph unicode="c" horiz-adv-x="1170" d="M613 -24Q461 -24 347 48T168 250T104 552Q104 727 168 857T346 1060T613 1132Q694 1132 766 1111T897 1051T1000 954T1066 823L893 774Q881 817 856 853T796 915T714 956T613 971Q501 971 429 913T322 759T287 552Q287
442 322 348T429 195T613 137Q669 137 716 152T799 194T861 260T898 343L1070 294Q1048 219 1005 161T901 61T768 -2T613 -24Z" />
<glyph unicode="d" horiz-adv-x="1254" d="M577 -24Q438 -24 331 47T164 248T104 556Q104 733 164 862T332 1062T578 1132Q687 1132 751 1096T849 1015T902 939H916V1490H1096V0H922V173H902Q884 142 849 96T749 13T577 -24ZM604 137Q706 137 776 190T882 339T918
558Q918 682 883 774T777 919T604 971Q498 971 428 916T322 768T287 558Q287 441 322 346T429 194T604 137Z" />
<glyph unicode="e" horiz-adv-x="1194" d="M628 -24Q466 -24 349 48T168 249T104 550Q104 722 166 853T341 1058T607 1132Q696 1132 782 1103T939 1008T1052 835T1094 573V498H226V650H997L913 594Q913 704 879 789T776 923T607 972Q506 972 434 923T324 794T286
623V522Q286 398 329 312T449 181T629 136Q695 136 749 155T842 212T902 308L1076 260Q1050 176 988 112T835 12T628 -24Z" />
<glyph unicode="f" horiz-adv-x="758" d="M678 1118V964H20V1118H678ZM240 0V1267Q240 1364 285 1429T404 1527T558 1560Q622 1560 664 1550T726 1530L676 1376Q662 1381 640 1387T579 1393Q496 1393 458 1351T420 1227V0H240Z" />
<glyph unicode="g" horiz-adv-x="1256" d="M611 -442Q487 -442 397 -411T246 -327T151 -214L297 -120Q321 -152 356 -191T452 -257T611 -285Q745 -285 831 -221T918 -19V205H901Q882 173 848 129T749 52T576 18Q442 18 335 81T166 267T104 564Q104 737 165 864T333
1062T580 1132Q688 1132 752 1097T852 1015T906 939H923V1118H1098V-29Q1098 -173 1033 -264T858 -399T611 -442ZM606 178Q708 178 778 224T884 358T920 568Q920 687 885 777T779 919T606 971Q500 971 429 917T323 771T287 568Q287 453 323 365T430 228T606 178Z"
/>
<glyph unicode="h" horiz-adv-x="1211" d="M338 670V0H158V1490H338V847H307Q358 1002 452 1067T674 1132Q787 1132 872 1086T1005 946T1053 710V0H872V695Q872 824 805 897T620 970Q540 970 476 935T375 833T338 670Z" />
<glyph unicode="i" horiz-adv-x="496" d="M158 0V1118H338V0H158ZM249 1301Q198 1301 161 1336T124 1420Q124 1470 161 1504T249 1539Q301 1539 338 1505T375 1420Q375 1371 338 1336T249 1301Z" />
<glyph unicode="j" horiz-adv-x="496" d="M157 1118H338V-80Q339 -186 302 -262T192 -378T10 -418H-26V-252H7Q85 -252 121 -208T157 -80V1118ZM248 1301Q197 1301 160 1336T123 1420Q123 1470 160 1504T248 1539Q300 1539 337 1505T374 1420Q374 1371 337 1336T248
1301Z" />
<glyph unicode="k" horiz-adv-x="1124" d="M327 402V625H360L838 1118H1061L544 587H524L327 402ZM158 0V1490H338V0H158ZM865 0L437 547L565 674L1096 0H865Z" />
<glyph unicode="l" horiz-adv-x="496" d="M338 1490V0H158V1490H338Z" />
<glyph unicode="m" horiz-adv-x="1794" d="M158 0V1118H333L334 868H320Q343 959 392 1018T508 1108T647 1138Q769 1138 844 1063T942 866H918Q938 950 991 1011T1119 1105T1284 1138Q1381 1138 1461 1096T1588 969T1636 754V0H1456V749Q1456 870 1388 922T1230
974Q1155 974 1101 943T1017 856T987 730V0H807V767Q807 860 745 917T588 974Q523 974 466 944T373 853T338 704V0H158Z" />
<glyph unicode="n" horiz-adv-x="1210" d="M338 670V0H158V1118H331L332 847H307Q358 1002 452 1067T674 1132Q787 1132 872 1086T1004 946T1052 710V0H872V695Q872 824 805 897T620 970Q540 970 476 935T375 833T338 670Z" />
<glyph unicode="o" horiz-adv-x="1228" d="M613 -24Q461 -24 347 48T168 250T104 552Q104 727 168 857T346 1060T613 1132Q766 1132 881 1060T1060 858T1124 552Q1124 380 1060 250T881 48T613 -24ZM613 137Q726 137 799 195T907 347T942 552Q942 663 907 758T799
912T613 971Q501 971 429 913T322 759T287 552Q287 442 322 348T429 195T613 137Z" />
<glyph unicode="p" horiz-adv-x="1254" d="M158 -418V1118H332V939H352Q371 969 405 1014T503 1096T676 1132Q816 1132 922 1062T1089 863T1150 556Q1150 378 1090 248T924 47T677 -24Q571 -24 506 12T406 95T352 173H338V-418H158ZM650 137Q755 137 825 193T931
345T967 558Q967 674 932 767T827 916T650 971Q547 971 477 919T372 775T336 558Q336 434 372 339T478 191T650 137Z" />
<glyph unicode="q" horiz-adv-x="1254" d="M1096 -418H916V173H902Q884 142 849 96T749 13T577 -24Q438 -24 331 47T164 248T104 556Q104 733 164 862T332 1062T578 1132Q687 1132 751 1096T849 1015T902 939H922V1118H1096V-418ZM604 137Q706 137 776 190T882
339T918 558Q918 682 883 774T777 919T604 971Q498 971 428 916T322 768T287 558Q287 441 322 346T429 194T604 137Z" />
<glyph unicode="r" horiz-adv-x="771" d="M158 0V1118H332V946H344Q375 1031 454 1082T634 1134Q654 1134 681 1133T725 1131V950Q717 952 685 956T617 960Q537 960 474 927T374 835T338 700V0H158Z" />
<glyph unicode="s" horiz-adv-x="1081" d="M538 -24Q423 -24 334 9T186 109T108 271L279 312Q303 220 369 177T536 134Q653 134 722 184T792 303Q792 361 752 399T628 457L442 501Q290 537 216 612T142 806Q142 902 196 975T343 1090T556 1132Q671 1132 751 1098T882
1003T958 863L795 821Q772 881 719 930T557 979Q457 979 391 933T324 817Q324 755 369 718T512 657L681 617Q833 581 906 506T979 315Q979 217 924 141T769 20T538 -24Z" />
<glyph unicode="t" horiz-adv-x="670" d="M598 1118V964H20V1118H598ZM188 1384H368V290Q368 215 398 181T500 146Q517 146 543 150T592 158L629 6Q601 -4 566 -9T495 -14Q350 -14 269 62T188 276V1384Z" />
<glyph unicode="u" horiz-adv-x="1211" d="M537 -14Q424 -14 339 32T206 173T158 408V1118H338V423Q338 294 406 221T591 148Q671 148 734 183T835 285T872 448V1118H1053V0H879V271H903Q851 114 756 50T537 -14Z" />
<glyph unicode="v" horiz-adv-x="1151" d="M481 0L54 1118H251L489 455Q527 352 553 250T609 51H543Q572 147 598 249T662 455L900 1118H1097L670 0H481Z" />
<glyph unicode="w" horiz-adv-x="1676" d="M409 0L70 1118H261L397 630Q425 530 457 404T520 117H489Q519 270 550 397T610 630L744 1118H936L1068 630Q1096 527 1126 401T1187 117H1155Q1187 272 1218 398T1279 630L1415 1118H1606L1267 0H1088L943 506Q921 583
900 663T859 827T818 998H858Q838 912 818 828T776 662T733 506L588 0H409Z" />
<glyph unicode="x" horiz-adv-x="1118" d="M65 0L506 643L505 505L88 1118H298L437 901Q491 817 530 744T612 603H518Q561 671 596 744T687 901L829 1118H1035L616 497V630L1053 0H844L680 251Q627 333 589 403T509 539H604Q563 474 528 404T439 251L273 0H65Z" />
<glyph unicode="y" horiz-adv-x="1151" d="M140 -405L186 -249L205 -254Q260 -268 305 -262T386 -217T449 -99L481 -6L54 1118H251L489 455Q527 351 553 249T608 51H542Q571 147 597 249T661 455L901 1118H1097L606 -167Q572 -256 525 -313T414 -398T272 -426Q224
-426 189 -419T140 -405Z" />
<glyph unicode="z" horiz-adv-x="1131" d="M126 0V134L753 940V951H146V1118H985V975L376 178V167H1005V0H126Z" />
<glyph unicode="{" horiz-adv-x="873" d="M144 646V741Q266 741 314 791T362 960V1190Q362 1292 382 1366T448 1487T568 1558T750 1581V1430Q623 1431 576 1373T528 1187V901Q528 844 513 798T457 717T341 665T144 646ZM750 -279Q643 -279 569 -257T449 -187T383
-65T362 112V340Q362 459 314 510T144 561V656Q265 656 340 637T457 584T513 502T528 399V115Q528 -12 575 -71T750 -130V-279ZM144 560V742H323V560H144Z" />
<glyph unicode="|" horiz-adv-x="681" d="M419 1970V-480H262V1970H419Z" />
<glyph unicode="}" horiz-adv-x="873" d="M729 646Q608 646 533 664T416 717T360 797T345 901V1187Q345 1313 298 1371T123 1430V1581Q230 1581 304 1558T423 1488T489 1366T510 1190V960Q510 842 558 792T729 741V646ZM123 -279V-130Q251 -130 298 -71T345 115V399Q345
455 360 502T416 583T532 637T729 656V561Q606 560 558 509T510 340V112Q510 9 490 -65T424 -186T304 -256T123 -279ZM729 561L549 560V742L729 741V561Z" />
<glyph unicode="~" horiz-adv-x="1355" d="M168 439Q166 563 207 638T316 746T458 780Q532 780 593 749T735 647Q788 601 820 582T890 563Q952 563 987 608T1023 740H1187Q1189 617 1147 542T1038 434T897 400Q821 400 759 432T620 532Q566 579 535 597T465 616Q407
616 369 575T332 439H168Z" />
<glyph unicode="&#xa0;" horiz-adv-x="576" />
<glyph unicode="&#xa1;" horiz-adv-x="589" d="M193 -361L206 650H385L397 -361H193ZM294 873Q239 873 200 912T160 1008Q160 1064 199 1103T294 1142Q350 1142 389 1103T429 1008Q429 952 390 913T294 873Z" />
<glyph unicode="&#xa2;" horiz-adv-x="1170" d="M543 0V1490H661V0H543ZM613 166Q461 166 347 238T168 440T104 742Q104 917 168 1047T346 1250T613 1322Q694 1322 766 1301T897 1241T1000 1144T1066 1013L893 964Q881 1007 856 1043T796 1105T714 1146T613 1161Q501
1161 429 1103T322 949T287 742Q287 632 322 538T429 385T613 327Q669 327 716 342T799 384T861 450T898 533L1070 484Q1048 409 1005 351T901 251T768 188T613 166Z" />
<glyph unicode="&#xa3;" horiz-adv-x="1251" d="M110 120V167Q199 167 237 218T273 366L252 1050Q248 1181 302 1285T460 1449T705 1510Q819 1510 910 1464T1061 1335T1138 1138L965 1110Q946 1217 880 1280T706 1343Q611 1343 549 1305T458 1201T431 1055L452
373Q454 306 428 261T360 187T269 145T179 125T110 120ZM110 0V167H886Q932 167 951 186T970 251V313H1139V266Q1139 133 1077 67T880 0H110ZM110 670V820H921V670H110Z" />
<glyph unicode="&#xa4;" horiz-adv-x="1484" d="M738 -20Q614 -20 506 28T317 161T189 361T143 608Q143 741 189 855T316 1054T506 1186T738 1234Q861 1234 969 1187T1160 1054T1288 855T1335 608Q1335 475 1289 361T1160 161T970 28T738 -20ZM738 142Q858 142
955 205T1110 375T1168 608Q1168 737 1111 843T956 1011T738 1074Q619 1074 521 1012T364 843T305 608Q305 481 363 375T520 206T738 142ZM1162 925L1044 1049L1244 1255L1366 1131L1162 925ZM1244 -15L1044 191L1162 313L1366 109L1244 -15ZM238 -15L120 109L320
313L442 191L238 -15ZM320 925L120 1131L238 1255L442 1049L320 925Z" />
<glyph unicode="&#xa5;" horiz-adv-x="1126" d="M239 1490L614 666L470 600L30 1490H239ZM512 666L888 1490H1098L657 600L512 666ZM658 782V0H469V782H658ZM982 744V608H143V744H982ZM982 456V320H143V456H982Z" />
<glyph unicode="&#xa6;" horiz-adv-x="553" d="M192 403H361V-280H192V403ZM361 1490V811H192V1490H361Z" />
<glyph unicode="&#xa7;" horiz-adv-x="1164" d="M563 -302Q449 -302 368 -265T238 -159T166 8L327 50Q352 -41 404 -94T567 -148Q660 -148 717 -108T774 12Q774 67 749 104T688 167T618 212L336 376Q272 414 224 465T149 575T122 694Q122 755 150 811T229 906T350
948L353 953Q286 1010 252 1067T218 1203Q218 1345 320 1427T588 1510Q751 1510 840 1429T972 1197L820 1156Q786 1253 740 1304T592 1356Q496 1356 443 1313T390 1197Q390 1144 415 1107T476 1043T548 996L830 830Q896 791 943 740T1016 631T1042 516Q1042 453
1013 398T932 306T814 264L811 257Q859 221 889 182T935 99T950 5Q950 -89 901 -158T765 -264T563 -302ZM692 350Q723 332 768 344T847 398T882 505Q882 546 867 581T821 646T746 702L460 866Q428 885 386 871T313 816T282 709Q282 669 297 634T343 566T422 506L692
350Z" />
<glyph unicode="&#xa8;" horiz-adv-x="1210" d="M816 1301Q767 1301 732 1336T697 1420Q697 1469 732 1503T816 1538Q865 1538 899 1504T934 1420Q934 1371 900 1336T816 1301ZM395 1301Q346 1301 311 1336T276 1420Q276 1469 311 1503T395 1538Q444 1538 478
1504T513 1420Q513 1371 479 1336T395 1301Z" />
<glyph unicode="&#xa9;" horiz-adv-x="1872" d="M512 744Q512 864 570 962T726 1118T944 1176Q1048 1176 1135 1132T1280 1011T1352 838H1176Q1161 912 1095 960T944 1008Q872 1008 812 973T716 877T680 744Q680 672 716 613T812 518T944 482Q1028 482 1086 529T1160
652H1336Q1323 555 1269 478T1132 357T944 312Q825 312 727 370T570 527T512 744ZM936 -23Q777 -23 638 36T393 202T228 447T168 745Q168 904 227 1043T393 1288T638 1453T936 1513Q1095 1513 1234 1454T1479 1288T1644 1043T1704 745Q1704 586 1645 447T1479 202T1234
37T936 -23ZM936 151Q1059 151 1166 197T1356 325T1484 514T1530 745Q1530 868 1484 975T1356 1165T1167 1293T936 1339Q813 1339 706 1293T516 1165T388 976T342 745Q342 622 388 515T516 325T705 197T936 151Z" />
<glyph unicode="&#xaa;" horiz-adv-x="929" d="M370 647Q285 647 217 676T108 763T67 902Q67 997 118 1048T249 1121T412 1153Q492 1162 541 1167T614 1186T638 1229V1233Q638 1301 594 1339T464 1377Q377 1377 326 1343T254 1264L93 1303Q125 1379 182 1425T312
1493T461 1514Q514 1514 574 1502T687 1458T775 1369T809 1222V665H643V780H634Q609 730 544 689T370 647ZM406 781Q480 781 532 807T611 876T639 967V1073Q627 1062 585 1053T496 1039T420 1029Q341 1019 288 991T235 900Q235 842 283 812T406 781Z" />
<glyph unicode="&#xab;" horiz-adv-x="1193" d="M501 144L100 616L501 1088H707L313 616L707 144H501ZM907 144L506 616L907 1088H1113L719 616L1113 144H907Z" />
<glyph unicode="&#xac;" horiz-adv-x="1355" d="M891 315V586H224V745H1060V315H891Z" />
<glyph unicode="&#xae;" horiz-adv-x="1364" d="M682 346Q562 346 457 391T271 517T146 702T100 928Q100 1048 145 1153T271 1339T456 1464T682 1510Q803 1510 908 1465T1094 1339T1219 1154T1264 928Q1264 808 1219 703T1094 517T909 392T682 346ZM682 487Q804
487 904 546T1063 706T1123 928Q1123 1050 1064 1150T904 1309T682 1369Q561 1369 461 1310T301 1150T241 928Q241 806 300 706T460 547T682 487ZM806 661L675 915H805L938 661H806ZM477 661V1197H749Q783 1197 822 1179T888 1123T916 1027Q916 968 888 927T819
864T741 843H546V932H705Q730 932 757 955T785 1027Q785 1075 757 1092T707 1110H597V661H477Z" />
<glyph unicode="&#xaf;" horiz-adv-x="978" d="M766 1491V1349H212V1491H766Z" />
<glyph unicode="&#xb0;" horiz-adv-x="933" d="M468 829Q375 829 299 874T176 995T130 1164Q130 1257 176 1334T298 1456T468 1502Q560 1502 636 1457T757 1334T803 1164Q803 1072 758 996T636 874T468 829ZM468 979Q519 979 561 1004T628 1071T653 1164Q653 1216
628 1258T561 1325T468 1351Q416 1351 374 1326T306 1258T281 1164Q281 1113 306 1071T373 1004T468 979Z" />
<glyph unicode="&#xb1;" horiz-adv-x="1355" d="M206 69V237H1150V69H206ZM206 658V826H1150V658H206ZM594 364V1121H763V364H594Z" />
<glyph unicode="&#xb2;" horiz-adv-x="905" d="M118 898V1021L458 1290Q506 1328 538 1357T585 1412T601 1469Q601 1523 554 1554T438 1586Q367 1586 323 1555T278 1469H112Q112 1583 203 1651T439 1720Q590 1720 680 1654T771 1483Q771 1450 761 1417T724 1345T646
1261T513 1155L360 1044V1037H797V898H118Z" />
<glyph unicode="&#xb3;" horiz-adv-x="913" d="M458 888Q360 888 280 917T153 998T103 1121H279Q281 1081 334 1056T460 1030Q538 1030 587 1061T637 1139Q637 1188 584 1219T438 1250H362V1373H438Q515 1373 565 1403T615 1482Q615 1527 572 1555T461 1584Q391
1584 342 1557T290 1484H123Q124 1554 169 1607T291 1690T462 1720Q559 1720 631 1690T744 1607T784 1490Q784 1422 733 1377T599 1320V1314Q706 1301 763 1252T820 1126Q820 1057 774 1003T646 919T458 888Z" />
<glyph unicode="&#xb4;" horiz-adv-x="661" d="M168 1264L308 1558H509L315 1264H168Z" />
<glyph unicode="&#xb5;" horiz-adv-x="1200" d="M158 -418V1118H338V440Q338 336 374 270T472 174T609 143Q685 143 744 174T838 270T873 440V1118H1053V253Q1053 198 1077 177T1161 155H1190V0H1154Q1015 0 946 64T877 251V352H919Q919 241 888 170T809 58T707
1T608 -16Q563 -16 510 0T408 57T329 169T298 352H338V-418H158Z" />
<glyph unicode="&#xb6;" horiz-adv-x="1234" d="M1045 1324H687V552H603Q444 552 334 613T167 780T110 1022Q110 1156 167 1261T334 1428T603 1490H1045V1324ZM867 0V1490H1054V0H867Z" />
<glyph unicode="&#xb7;" horiz-adv-x="590" d="M295 573Q239 573 200 612T160 708Q160 764 199 803T295 843Q351 843 390 804T430 708Q430 652 391 613T295 573Z" />
<glyph unicode="&#xb8;" horiz-adv-x="549" d="M155 -418V-313H273Q328 -313 349 -299T371 -247Q371 -210 350 -196T273 -182H191L221 48H316V0V-86Q414 -90 459 -128T505 -248Q505 -336 450 -377T274 -418H155Z" />
<glyph unicode="&#xb9;" horiz-adv-x="623" d="M499 1710V898H326V1563H318L99 1434V1586L306 1710H499Z" />
<glyph unicode="&#xba;" horiz-adv-x="988" d="M494 648Q369 648 275 702T130 854T78 1080Q78 1211 129 1308T275 1460T494 1514Q619 1514 712 1460T858 1309T910 1080Q910 951 858 854T713 702T494 648ZM494 791Q577 791 630 830T710 935T737 1080Q737 1159 711
1225T631 1331T494 1371Q412 1371 359 1332T279 1226T252 1080Q252 1001 278 936T358 831T494 791Z" />
<glyph unicode="&#xbb;" horiz-adv-x="1193" d="M80 144L474 616L80 1088H286L687 616L286 144H80ZM486 144L880 616L486 1088H692L1093 616L692 144H486Z" />
<glyph unicode="&#xbc;" horiz-adv-x="1643" d="M438 1490V678H277V1354H268L75 1205V1365L238 1490H438ZM189 0L1213 1490H1382L358 0H189ZM933 125V254L1257 812H1362V620H1295L1094 270V259H1556V125H933ZM1303 0V163L1306 222V812H1457V0H1303Z" />
<glyph unicode="&#xbd;" horiz-adv-x="1735" d="M438 1490V678H277V1354H268L75 1205V1365L238 1490H438ZM189 0L1213 1490H1382L358 0H189ZM1088 0V108L1360 403Q1413 460 1442 502T1472 591Q1472 638 1435 664T1350 690Q1300 690 1268 663T1236 587H1081Q1081
696 1160 758T1355 821Q1477 821 1552 755T1627 596Q1627 559 1611 519T1550 418T1418 262L1312 145V135H1638V0H1088Z" />
<glyph unicode="&#xbe;" horiz-adv-x="1806" d="M399 669Q316 669 250 692T145 759T100 862H263Q270 837 310 821T399 805Q457 805 497 833T537 908Q537 960 501 994T388 1029H304V1155H388Q443 1155 477 1186T512 1270Q512 1314 484 1340T406 1367Q363 1367 319
1348T271 1294H117Q121 1355 162 1401T268 1473T409 1499Q494 1499 551 1467T639 1385T669 1279Q669 1209 633 1162T534 1101V1091Q620 1081 661 1030T703 900Q703 801 617 735T399 669ZM352 0L1376 1490H1545L521 0H352ZM1096 125V254L1420 812H1525V620H1458L1257
270V259H1719V125H1096ZM1466 0V163L1469 222V812H1620V0H1466Z" />
<glyph unicode="&#xbf;" horiz-adv-x="1047" d="M664 669V658Q664 522 638 447T561 329T442 244Q376 204 331 143T286 -6Q286 -75 318 -126T406 -205T529 -233Q588 -233 642 -209T733 -132T775 3H965Q960 -122 901 -210T744 -345T529 -392Q400 -392 304 -341T155
-202T102 1Q102 122 155 208T305 353Q370 393 409 429T465 517T483 658V669H664ZM571 1131Q627 1131 666 1092T706 997Q706 941 667 902T571 862Q516 862 477 901T437 997Q437 1053 476 1092T571 1131Z" />
<glyph unicode="&#xc0;" horiz-adv-x="1413" d="M52 0L593 1490H813L1361 0H1161L845 884Q816 966 778 1088T684 1401H720Q666 1209 627 1085T561 884L254 0H52ZM324 416V582H1089V416H324ZM635 1636L442 1930H643L783 1636H635Z" />
<glyph unicode="&#xc1;" horiz-adv-x="1413" d="M52 0L593 1490H813L1361 0H1161L845 884Q816 966 778 1088T684 1401H720Q666 1209 627 1085T561 884L254 0H52ZM324 416V582H1089V416H324ZM627 1636L767 1930H968L774 1636H627Z" />
<glyph unicode="&#xc2;" horiz-adv-x="1413" d="M52 0L593 1490H813L1361 0H1161L845 884Q816 966 778 1088T684 1401H720Q666 1209 627 1085T561 884L254 0H52ZM324 416V582H1089V416H324ZM562 1654H385V1663L620 1930H791L1027 1663V1654H848L706 1829L562 1654Z" />
<glyph unicode="&#xc3;" horiz-adv-x="1413" d="M52 0L593 1490H813L1361 0H1161L845 884Q816 966 778 1088T684 1401H720Q666 1209 627 1085T561 884L254 0H52ZM324 416V582H1089V416H324ZM837 1685Q800 1685 765 1697T698 1726T640 1755T594 1768Q568 1768 556
1743T541 1689H415Q418 1779 457 1838T577 1897Q616 1897 649 1884T711 1855T766 1825T818 1812Q843 1812 856 1831T874 1893H997Q994 1799 953 1742T837 1685Z" />
<glyph unicode="&#xc4;" horiz-adv-x="1413" d="M52 0L593 1490H813L1361 0H1161L845 884Q816 966 778 1088T684 1401H720Q666 1209 627 1085T561 884L254 0H52ZM324 416V582H1089V416H324ZM917 1673Q868 1673 833 1708T798 1792Q798 1841 833 1875T917 1910Q966
1910 1000 1876T1035 1792Q1035 1743 1001 1708T917 1673ZM496 1673Q447 1673 412 1708T377 1792Q377 1841 412 1875T496 1910Q545 1910 579 1876T614 1792Q614 1743 580 1708T496 1673Z" />
<glyph unicode="&#xc5;" horiz-adv-x="1413" d="M52 0L593 1490H813L1361 0H1161L845 884Q816 966 778 1088T684 1401H720Q666 1209 627 1085T561 884L254 0H52ZM324 416V582H1089V416H324ZM706 1541Q633 1541 574 1575T479 1666T443 1792Q443 1862 478 1918T573
2008T706 2042Q779 2042 838 2009T933 1919T969 1792Q969 1723 934 1666T839 1575T706 1541ZM706 1667Q758 1667 794 1703T831 1792Q831 1844 795 1880T706 1917Q654 1917 618 1881T581 1792Q581 1740 617 1704T706 1667Z" />
<glyph unicode="&#xc6;" horiz-adv-x="2035" d="M52 0L768 1490H1890V1322H1174V830H1844V662H1174V168H1901V0H992V1367H899L261 0H52ZM395 416V574H1081V416H395Z" />
<glyph unicode="&#xc7;" horiz-adv-x="1496" d="M783 -20Q592 -20 443 72T208 336T122 744Q122 981 207 1152T442 1417T783 1510Q896 1510 996 1477T1177 1381T1310 1227T1384 1021H1194Q1178 1098 1140 1156T1046 1254T923 1314T783 1334Q649 1334 541 1266T370
1067T307 744Q307 554 370 423T542 224T783 156Q856 156 923 176T1045 236T1139 334T1194 469H1384Q1365 355 1312 265T1178 111T998 14T783 -20ZM671 -429V-324H789Q844 -324 865 -310T887 -258Q887 -221 866 -207T789 -193H707L737 37H832V-11V-97Q930 -101 975
-139T1021 -259Q1021 -347 966 -388T790 -429H671Z" />
<glyph unicode="&#xc8;" horiz-adv-x="1231" d="M180 0V1490H1088V1322H370V836H1039V668H370V168H1097V0H180ZM568 1636L375 1930H576L716 1636H568Z" />
<glyph unicode="&#xc9;" horiz-adv-x="1231" d="M180 0V1490H1088V1322H370V836H1039V668H370V168H1097V0H180ZM560 1636L700 1930H901L707 1636H560Z" />
<glyph unicode="&#xca;" horiz-adv-x="1231" d="M180 0V1490H1088V1322H370V836H1039V668H370V168H1097V0H180ZM495 1654H318V1663L553 1930H724L960 1663V1654H781L639 1829L495 1654Z" />
<glyph unicode="&#xcb;" horiz-adv-x="1231" d="M180 0V1490H1088V1322H370V836H1039V668H370V168H1097V0H180ZM850 1673Q801 1673 766 1708T731 1792Q731 1841 766 1875T850 1910Q899 1910 933 1876T968 1792Q968 1743 934 1708T850 1673ZM429 1673Q380 1673
345 1708T310 1792Q310 1841 345 1875T429 1910Q478 1910 512 1876T547 1792Q547 1743 513 1708T429 1673Z" />
<glyph unicode="&#xcc;" horiz-adv-x="550" d="M370 1490V0H180V1490H370ZM204 1636L11 1930H212L352 1636H204Z" />
<glyph unicode="&#xcd;" horiz-adv-x="550" d="M370 1490V0H180V1490H370ZM196 1636L336 1930H537L343 1636H196Z" />
<glyph unicode="&#xce;" horiz-adv-x="550" d="M370 1490V0H180V1490H370ZM131 1654H-46V1663L189 1930H360L596 1663V1654H417L275 1829L131 1654Z" />
<glyph unicode="&#xcf;" horiz-adv-x="550" d="M370 1490V0H180V1490H370ZM486 1673Q437 1673 402 1708T367 1792Q367 1841 402 1875T486 1910Q535 1910 569 1876T604 1792Q604 1743 570 1708T486 1673ZM65 1673Q16 1673 -19 1708T-54 1792Q-54 1841 -19 1875T65
1910Q114 1910 148 1876T183 1792Q183 1743 149 1708T65 1673Z" />
<glyph unicode="&#xd0;" horiz-adv-x="1505" d="M672 0H312V168H660Q842 168 961 237T1140 437T1199 748Q1199 927 1141 1055T967 1253T678 1322H304V1490H691Q909 1490 1063 1401T1300 1146T1383 748Q1383 515 1300 348T1058 90T672 0ZM397 1490V0H207V1490H397ZM276
668V822H1049V668H276Z" />
<glyph unicode="&#xd1;" horiz-adv-x="1543" d="M180 0V1490H404L1010 537Q1034 500 1068 442T1141 311T1219 155H1192Q1183 241 1179 319T1174 464T1173 576V1490H1363V0H1137L597 848Q560 907 523 969T437 1117T318 1329H353Q358 1218 362 1124T368 960T371
850V0H180ZM903 1685Q866 1685 831 1697T764 1726T706 1755T660 1768Q634 1768 622 1743T607 1689H481Q484 1779 523 1838T643 1897Q682 1897 715 1884T777 1855T832 1825T884 1812Q909 1812 922 1831T940 1893H1063Q1060 1799 1019 1742T903 1685Z" />
<glyph unicode="&#xd2;" horiz-adv-x="1566" d="M784 -20Q593 -20 444 72T208 336T122 744Q122 981 208 1152T443 1417T784 1510Q975 1510 1124 1417T1358 1153T1444 744Q1444 508 1359 337T1124 73T784 -20ZM784 156Q917 156 1024 223T1195 422T1259 744Q1259
936 1196 1067T1025 1266T784 1334Q650 1334 542 1266T371 1067T307 744Q307 554 370 423T542 224T784 156ZM713 1636L520 1930H721L861 1636H713Z" />
<glyph unicode="&#xd3;" horiz-adv-x="1566" d="M784 -20Q593 -20 444 72T208 336T122 744Q122 981 208 1152T443 1417T784 1510Q975 1510 1124 1417T1358 1153T1444 744Q1444 508 1359 337T1124 73T784 -20ZM784 156Q917 156 1024 223T1195 422T1259 744Q1259
936 1196 1067T1025 1266T784 1334Q650 1334 542 1266T371 1067T307 744Q307 554 370 423T542 224T784 156ZM705 1636L845 1930H1046L852 1636H705Z" />
<glyph unicode="&#xd4;" horiz-adv-x="1566" d="M784 -20Q593 -20 444 72T208 336T122 744Q122 981 208 1152T443 1417T784 1510Q975 1510 1124 1417T1358 1153T1444 744Q1444 508 1359 337T1124 73T784 -20ZM784 156Q917 156 1024 223T1195 422T1259 744Q1259
936 1196 1067T1025 1266T784 1334Q650 1334 542 1266T371 1067T307 744Q307 554 370 423T542 224T784 156ZM640 1654H463V1663L698 1930H869L1105 1663V1654H926L784 1829L640 1654Z" />
<glyph unicode="&#xd5;" horiz-adv-x="1566" d="M784 -20Q593 -20 444 72T208 336T122 744Q122 981 208 1152T443 1417T784 1510Q975 1510 1124 1417T1358 1153T1444 744Q1444 508 1359 337T1124 73T784 -20ZM784 156Q917 156 1024 223T1195 422T1259 744Q1259
936 1196 1067T1025 1266T784 1334Q650 1334 542 1266T371 1067T307 744Q307 554 370 423T542 224T784 156ZM915 1685Q878 1685 843 1697T776 1726T718 1755T672 1768Q646 1768 634 1743T619 1689H493Q496 1779 535 1838T655 1897Q694 1897 727 1884T789 1855T844
1825T896 1812Q921 1812 934 1831T952 1893H1075Q1072 1799 1031 1742T915 1685Z" />
<glyph unicode="&#xd6;" horiz-adv-x="1566" d="M784 -20Q593 -20 444 72T208 336T122 744Q122 981 208 1152T443 1417T784 1510Q975 1510 1124 1417T1358 1153T1444 744Q1444 508 1359 337T1124 73T784 -20ZM784 156Q917 156 1024 223T1195 422T1259 744Q1259
936 1196 1067T1025 1266T784 1334Q650 1334 542 1266T371 1067T307 744Q307 554 370 423T542 224T784 156ZM995 1673Q946 1673 911 1708T876 1792Q876 1841 911 1875T995 1910Q1044 1910 1078 1876T1113 1792Q1113 1743 1079 1708T995 1673ZM574 1673Q525 1673
490 1708T455 1792Q455 1841 490 1875T574 1910Q623 1910 657 1876T692 1792Q692 1743 658 1708T574 1673Z" />
<glyph unicode="&#xd7;" horiz-adv-x="1355" d="M1034 112L210 936L326 1054L1150 228L1034 112ZM326 112L210 228L1034 1054L1150 936L326 112Z" />
<glyph unicode="&#xd8;" horiz-adv-x="1566" d="M784 -20Q593 -20 444 72T208 336T122 744Q122 981 208 1152T443 1417T784 1510Q975 1510 1124 1417T1358 1153T1444 744Q1444 508 1359 337T1124 73T784 -20ZM784 156Q917 156 1024 223T1195 422T1259 744Q1259
936 1196 1067T1025 1266T784 1334Q650 1334 542 1266T371 1067T307 744Q307 554 370 423T542 224T784 156ZM330 -46L200 44L1238 1536L1368 1446L330 -46Z" />
<glyph unicode="&#xd9;" horiz-adv-x="1524" d="M763 -24Q587 -24 456 45T252 234T180 507V1490H370V522Q370 415 417 332T553 200T763 152Q885 152 972 200T1107 331T1154 522V1490H1344V507Q1344 354 1272 234T1070 45T763 -24ZM692 1636L499 1930H700L840 1636H692Z" />
<glyph unicode="&#xda;" horiz-adv-x="1524" d="M763 -24Q587 -24 456 45T252 234T180 507V1490H370V522Q370 415 417 332T553 200T763 152Q885 152 972 200T1107 331T1154 522V1490H1344V507Q1344 354 1272 234T1070 45T763 -24ZM684 1636L824 1930H1025L831 1636H684Z" />
<glyph unicode="&#xdb;" horiz-adv-x="1524" d="M763 -24Q587 -24 456 45T252 234T180 507V1490H370V522Q370 415 417 332T553 200T763 152Q885 152 972 200T1107 331T1154 522V1490H1344V507Q1344 354 1272 234T1070 45T763 -24ZM619 1654H442V1663L677 1930H848L1084
1663V1654H905L763 1829L619 1654Z" />
<glyph unicode="&#xdc;" horiz-adv-x="1524" d="M763 -24Q587 -24 456 45T252 234T180 507V1490H370V522Q370 415 417 332T553 200T763 152Q885 152 972 200T1107 331T1154 522V1490H1344V507Q1344 354 1272 234T1070 45T763 -24ZM974 1673Q925 1673 890 1708T855
1792Q855 1841 890 1875T974 1910Q1023 1910 1057 1876T1092 1792Q1092 1743 1058 1708T974 1673ZM553 1673Q504 1673 469 1708T434 1792Q434 1841 469 1875T553 1910Q602 1910 636 1876T671 1792Q671 1743 637 1708T553 1673Z" />
<glyph unicode="&#xdd;" horiz-adv-x="1390" d="M600 0V610L52 1490H272L567 1009Q617 928 655 855T735 669H659Q700 783 739 857T825 1009L1119 1490H1338L790 610V0H600ZM616 1636L756 1930H957L763 1636H616Z" />
<glyph unicode="&#xde;" horiz-adv-x="1302" d="M168 1490H360V0H168V1490ZM259 1185L643 1184Q803 1184 913 1126T1080 970T1138 755Q1138 636 1081 539T913 383T643 325H259V491H643Q745 491 815 522T922 611T958 751Q958 833 922 893T816 985T643 1018H259V1185Z" />
<glyph unicode="&#xdf;" horiz-adv-x="1262" d="M180 0V1107Q180 1232 235 1322T389 1461T616 1510Q742 1510 841 1464T999 1331T1057 1125Q1057 1001 994 914T823 789V775Q968 761 1057 663T1146 410Q1146 292 1092 199T940 53T709 0H544V167H709Q825 167 894
236T964 412Q964 525 887 598T679 671H550V841H641Q713 841 765 877T846 972T875 1097Q875 1200 807 1271T621 1343Q509 1343 436 1277T362 1104V0H180Z" />
<glyph unicode="&#xe0;" horiz-adv-x="1150" d="M471 -26Q365 -26 279 14T141 131T90 318Q90 414 128 474T229 568T370 620T525 647Q625 660 688 667T781 691T812 749V755Q812 825 786 873T708 948T578 974Q498 974 441 949T349 887T295 810L122 867Q165 969 238
1026T399 1108T573 1132Q629 1132 700 1119T838 1065T948 947T992 737V0H815V152H803Q784 113 742 72T633 2T471 -26ZM502 133Q602 133 671 172T776 273T812 404V559Q801 546 764 536T680 517T588 504T517 495Q452 487 396 468T305 411T271 309Q271 251 301 212T383
153T502 133ZM487 1264L294 1558H495L635 1264H487Z" />
<glyph unicode="&#xe1;" horiz-adv-x="1150" d="M471 -26Q365 -26 279 14T141 131T90 318Q90 414 128 474T229 568T370 620T525 647Q625 660 688 667T781 691T812 749V755Q812 825 786 873T708 948T578 974Q498 974 441 949T349 887T295 810L122 867Q165 969 238
1026T399 1108T573 1132Q629 1132 700 1119T838 1065T948 947T992 737V0H815V152H803Q784 113 742 72T633 2T471 -26ZM502 133Q602 133 671 172T776 273T812 404V559Q801 546 764 536T680 517T588 504T517 495Q452 487 396 468T305 411T271 309Q271 251 301 212T383
153T502 133ZM479 1264L619 1558H820L626 1264H479Z" />
<glyph unicode="&#xe2;" horiz-adv-x="1150" d="M471 -26Q365 -26 279 14T141 131T90 318Q90 414 128 474T229 568T370 620T525 647Q625 660 688 667T781 691T812 749V755Q812 825 786 873T708 948T578 974Q498 974 441 949T349 887T295 810L122 867Q165 969 238
1026T399 1108T573 1132Q629 1132 700 1119T838 1065T948 947T992 737V0H815V152H803Q784 113 742 72T633 2T471 -26ZM502 133Q602 133 671 172T776 273T812 404V559Q801 546 764 536T680 517T588 504T517 495Q452 487 396 468T305 411T271 309Q271 251 301 212T383
153T502 133ZM414 1282H237V1291L472 1558H643L879 1291V1282H700L558 1457L414 1282Z" />
<glyph unicode="&#xe3;" horiz-adv-x="1150" d="M471 -26Q365 -26 279 14T141 131T90 318Q90 414 128 474T229 568T370 620T525 647Q625 660 688 667T781 691T812 749V755Q812 825 786 873T708 948T578 974Q498 974 441 949T349 887T295 810L122 867Q165 969 238
1026T399 1108T573 1132Q629 1132 700 1119T838 1065T948 947T992 737V0H815V152H803Q784 113 742 72T633 2T471 -26ZM502 133Q602 133 671 172T776 273T812 404V559Q801 546 764 536T680 517T588 504T517 495Q452 487 396 468T305 411T271 309Q271 251 301 212T383
153T502 133ZM689 1313Q652 1313 617 1325T550 1354T492 1383T446 1396Q420 1396 408 1371T393 1317H267Q270 1407 309 1466T429 1525Q468 1525 501 1512T563 1483T618 1453T670 1440Q695 1440 708 1459T726 1521H849Q846 1427 805 1370T689 1313Z" />
<glyph unicode="&#xe4;" horiz-adv-x="1150" d="M471 -26Q365 -26 279 14T141 131T90 318Q90 414 128 474T229 568T370 620T525 647Q625 660 688 667T781 691T812 749V755Q812 825 786 873T708 948T578 974Q498 974 441 949T349 887T295 810L122 867Q165 969 238
1026T399 1108T573 1132Q629 1132 700 1119T838 1065T948 947T992 737V0H815V152H803Q784 113 742 72T633 2T471 -26ZM502 133Q602 133 671 172T776 273T812 404V559Q801 546 764 536T680 517T588 504T517 495Q452 487 396 468T305 411T271 309Q271 251 301 212T383
153T502 133ZM1025 1301Q976 1301 941 1336T906 1420Q906 1469 941 1503T1025 1538Q1074 1538 1108 1504T1143 1420Q1143 1371 1109 1336T1025 1301ZM604 1301Q555 1301 520 1336T485 1420Q485 1469 520 1503T604 1538Q653 1538 687 1504T722 1420Q722 1371 688
1336T604 1301Z" />
<glyph unicode="&#xe5;" horiz-adv-x="1150" d="M471 -26Q365 -26 279 14T141 131T90 318Q90 414 128 474T229 568T370 620T525 647Q625 660 688 667T781 691T812 749V755Q812 825 786 873T708 948T578 974Q498 974 441 949T349 887T295 810L122 867Q165 969 238
1026T399 1108T573 1132Q629 1132 700 1119T838 1065T948 947T992 737V0H815V152H803Q784 113 742 72T633 2T471 -26ZM502 133Q602 133 671 172T776 273T812 404V559Q801 546 764 536T680 517T588 504T517 495Q452 487 396 468T305 411T271 309Q271 251 301 212T383
153T502 133ZM558 1189Q486 1189 426 1223T331 1314T295 1441Q295 1511 330 1567T426 1658T558 1692Q631 1692 690 1658T785 1568T821 1441Q821 1371 786 1314T691 1223T558 1189ZM558 1315Q611 1315 647 1352T684 1441Q684 1493 648 1529T558 1566Q506 1566 470
1530T433 1441Q433 1389 469 1352T558 1315Z" />
<glyph unicode="&#xe6;" horiz-adv-x="1879" d="M472 -26Q366 -26 279 14T141 131T90 318Q90 414 133 478T246 579T400 633T566 650H1674L1590 587Q1604 696 1571 783T1467 921T1295 972Q1194 972 1121 923T1009 794T970 623V522Q970 398 1013 312T1133 181T1311
136Q1378 136 1432 155T1525 212T1586 308L1761 263Q1735 178 1673 114T1519 13T1311 -24Q1189 -24 1093 17T934 131T851 300L882 865Q919 947 977 1007T1115 1099T1295 1132Q1384 1132 1470 1103T1626 1008T1737 835T1779 573V498H568Q489 498 422 478T313 415T271
309Q271 222 336 178T502 133Q602 133 670 172T774 273T810 404V755Q810 824 785 873T708 948T578 974Q498 974 441 949T349 887T295 810L122 867Q165 969 238 1026T399 1108T573 1132Q638 1132 714 1115T855 1044T953 883L918 203H898Q881 156 840 115T741 42T614
-8T472 -26Z" />
<glyph unicode="&#xe7;" horiz-adv-x="1170" d="M613 -24Q461 -24 347 48T168 250T104 552Q104 727 168 857T346 1060T613 1132Q694 1132 766 1111T897 1051T1000 954T1066 823L893 774Q881 817 856 853T796 915T714 956T613 971Q501 971 429 913T322 759T287
552Q287 442 322 348T429 195T613 137Q669 137 716 152T799 194T861 260T898 343L1070 294Q1048 219 1005 161T901 61T768 -2T613 -24ZM502 -418V-313H620Q675 -313 696 -299T718 -247Q718 -210 697 -196T620 -182H538L568 48H663V0V-86Q761 -90 806 -128T852 -248Q852
-336 797 -377T621 -418H502Z" />
<glyph unicode="&#xe8;" horiz-adv-x="1194" d="M628 -24Q466 -24 349 48T168 249T104 550Q104 722 166 853T341 1058T607 1132Q696 1132 782 1103T939 1008T1052 835T1094 573V498H226V650H997L913 594Q913 704 879 789T776 923T607 972Q506 972 434 923T324
794T286 623V522Q286 398 329 312T449 181T629 136Q695 136 749 155T842 212T902 308L1076 260Q1050 176 988 112T835 12T628 -24ZM532 1264L339 1558H540L680 1264H532Z" />
<glyph unicode="&#xe9;" horiz-adv-x="1194" d="M628 -24Q466 -24 349 48T168 249T104 550Q104 722 166 853T341 1058T607 1132Q696 1132 782 1103T939 1008T1052 835T1094 573V498H226V650H997L913 594Q913 704 879 789T776 923T607 972Q506 972 434 923T324
794T286 623V522Q286 398 329 312T449 181T629 136Q695 136 749 155T842 212T902 308L1076 260Q1050 176 988 112T835 12T628 -24ZM524 1264L664 1558H865L671 1264H524Z" />
<glyph unicode="&#xea;" horiz-adv-x="1194" d="M628 -24Q466 -24 349 48T168 249T104 550Q104 722 166 853T341 1058T607 1132Q696 1132 782 1103T939 1008T1052 835T1094 573V498H226V650H997L913 594Q913 704 879 789T776 923T607 972Q506 972 434 923T324
794T286 623V522Q286 398 329 312T449 181T629 136Q695 136 749 155T842 212T902 308L1076 260Q1050 176 988 112T835 12T628 -24ZM459 1282H282V1291L517 1558H688L924 1291V1282H745L603 1457L459 1282Z" />
<glyph unicode="&#xeb;" horiz-adv-x="1194" d="M628 -24Q466 -24 349 48T168 249T104 550Q104 722 166 853T341 1058T607 1132Q696 1132 782 1103T939 1008T1052 835T1094 573V498H226V650H997L913 594Q913 704 879 789T776 923T607 972Q506 972 434 923T324
794T286 623V522Q286 398 329 312T449 181T629 136Q695 136 749 155T842 212T902 308L1076 260Q1050 176 988 112T835 12T628 -24ZM1070 1301Q1021 1301 986 1336T951 1420Q951 1469 986 1503T1070 1538Q1119 1538 1153 1504T1188 1420Q1188 1371 1154 1336T1070
1301ZM649 1301Q600 1301 565 1336T530 1420Q530 1469 565 1503T649 1538Q698 1538 732 1504T767 1420Q767 1371 733 1336T649 1301Z" />
<glyph unicode="&#xec;" horiz-adv-x="496" d="M158 0V1118H338V0H158ZM178 1264L-15 1558H186L326 1264H178Z" />
<glyph unicode="&#xed;" horiz-adv-x="496" d="M158 0V1118H338V0H158ZM170 1264L310 1558H511L317 1264H170Z" />
<glyph unicode="&#xee;" horiz-adv-x="496" d="M158 0V1118H338V0H158ZM105 1282H-72V1291L163 1558H334L570 1291V1282H391L249 1457L105 1282Z" />
<glyph unicode="&#xef;" horiz-adv-x="496" d="M158 0V1118H338V0H158ZM460 1301Q411 1301 376 1336T341 1420Q341 1469 376 1503T460 1538Q509 1538 543 1504T578 1420Q578 1371 544 1336T460 1301ZM39 1301Q-10 1301 -45 1336T-80 1420Q-80 1469 -45 1503T39
1538Q88 1538 122 1504T157 1420Q157 1371 123 1336T39 1301Z" />
<glyph unicode="&#xf0;" horiz-adv-x="1193" d="M967 1415L364 1123L317 1233L919 1525L967 1415ZM597 -24Q447 -24 336 45T165 235T104 512Q104 670 164 790T325 979T551 1047Q635 1047 697 1018T803 947T870 861H886Q853 953 787 1058T610 1266T328 1456L401
1581Q526 1520 648 1423T870 1196T1029 903T1089 548Q1089 368 1028 240T856 44T597 -24ZM598 136Q702 136 772 185T878 317T914 502Q914 596 882 687T780 838T598 899Q493 899 424 846T320 704T285 513Q285 415 317 329T418 190T598 136Z" />
<glyph unicode="&#xf1;" horiz-adv-x="1210" d="M338 670V0H158V1118H331L332 847H307Q358 1002 452 1067T674 1132Q787 1132 872 1086T1004 946T1052 710V0H872V695Q872 824 805 897T620 970Q540 970 476 935T375 833T338 670ZM736 1313Q699 1313 664 1325T597
1354T539 1383T493 1396Q467 1396 455 1371T440 1317H314Q317 1407 356 1466T476 1525Q515 1525 548 1512T610 1483T665 1453T717 1440Q742 1440 755 1459T773 1521H896Q893 1427 852 1370T736 1313Z" />
<glyph unicode="&#xf2;" horiz-adv-x="1228" d="M613 -24Q461 -24 347 48T168 250T104 552Q104 727 168 857T346 1060T613 1132Q766 1132 881 1060T1060 858T1124 552Q1124 380 1060 250T881 48T613 -24ZM613 137Q726 137 799 195T907 347T942 552Q942 663 907
758T799 912T613 971Q501 971 429 913T322 759T287 552Q287 442 322 348T429 195T613 137ZM542 1264L349 1558H550L690 1264H542Z" />
<glyph unicode="&#xf3;" horiz-adv-x="1228" d="M613 -24Q461 -24 347 48T168 250T104 552Q104 727 168 857T346 1060T613 1132Q766 1132 881 1060T1060 858T1124 552Q1124 380 1060 250T881 48T613 -24ZM613 137Q726 137 799 195T907 347T942 552Q942 663 907
758T799 912T613 971Q501 971 429 913T322 759T287 552Q287 442 322 348T429 195T613 137ZM534 1264L674 1558H875L681 1264H534Z" />
<glyph unicode="&#xf4;" horiz-adv-x="1228" d="M613 -24Q461 -24 347 48T168 250T104 552Q104 727 168 857T346 1060T613 1132Q766 1132 881 1060T1060 858T1124 552Q1124 380 1060 250T881 48T613 -24ZM613 137Q726 137 799 195T907 347T942 552Q942 663 907
758T799 912T613 971Q501 971 429 913T322 759T287 552Q287 442 322 348T429 195T613 137ZM469 1282H292V1291L527 1558H698L934 1291V1282H755L613 1457L469 1282Z" />
<glyph unicode="&#xf5;" horiz-adv-x="1228" d="M613 -24Q461 -24 347 48T168 250T104 552Q104 727 168 857T346 1060T613 1132Q766 1132 881 1060T1060 858T1124 552Q1124 380 1060 250T881 48T613 -24ZM613 137Q726 137 799 195T907 347T942 552Q942 663 907
758T799 912T613 971Q501 971 429 913T322 759T287 552Q287 442 322 348T429 195T613 137ZM744 1313Q707 1313 672 1325T605 1354T547 1383T501 1396Q475 1396 463 1371T448 1317H322Q325 1407 364 1466T484 1525Q523 1525 556 1512T618 1483T673 1453T725 1440Q750
1440 763 1459T781 1521H904Q901 1427 860 1370T744 1313Z" />
<glyph unicode="&#xf6;" horiz-adv-x="1228" d="M613 -24Q461 -24 347 48T168 250T104 552Q104 727 168 857T346 1060T613 1132Q766 1132 881 1060T1060 858T1124 552Q1124 380 1060 250T881 48T613 -24ZM613 137Q726 137 799 195T907 347T942 552Q942 663 907
758T799 912T613 971Q501 971 429 913T322 759T287 552Q287 442 322 348T429 195T613 137ZM824 1301Q775 1301 740 1336T705 1420Q705 1469 740 1503T824 1538Q873 1538 907 1504T942 1420Q942 1371 908 1336T824 1301ZM403 1301Q354 1301 319 1336T284 1420Q284
1469 319 1503T403 1538Q452 1538 486 1504T521 1420Q521 1371 487 1336T403 1301Z" />
<glyph unicode="&#xf7;" horiz-adv-x="1355" d="M1147 668V498H210V668H1147ZM677 72Q622 72 583 111T544 205Q544 259 583 297T677 336Q732 336 770 298T809 205Q809 150 771 111T677 72ZM677 830Q622 830 583 868T544 963Q544 1017 583 1056T677 1095Q732 1095
770 1056T809 963Q809 907 771 869T677 830Z" />
<glyph unicode="&#xf8;" horiz-adv-x="1228" d="M613 -24Q461 -24 347 48T168 250T104 552Q104 727 168 857T346 1060T613 1132Q766 1132 881 1060T1060 858T1124 552Q1124 380 1060 250T881 48T613 -24ZM613 137Q726 137 799 195T907 347T942 552Q942 663 907
758T799 912T613 971Q501 971 429 913T322 759T287 552Q287 442 322 348T429 195T613 137ZM190 -45L83 45L1037 1163L1143 1073L190 -45Z" />
<glyph unicode="&#xf9;" horiz-adv-x="1211" d="M537 -14Q424 -14 339 32T206 173T158 408V1118H338V423Q338 294 406 221T591 148Q671 148 734 183T835 285T872 448V1118H1053V0H879V271H903Q851 114 756 50T537 -14ZM534 1264L341 1558H542L682 1264H534Z" />
<glyph unicode="&#xfa;" horiz-adv-x="1211" d="M537 -14Q424 -14 339 32T206 173T158 408V1118H338V423Q338 294 406 221T591 148Q671 148 734 183T835 285T872 448V1118H1053V0H879V271H903Q851 114 756 50T537 -14ZM526 1264L666 1558H867L673 1264H526Z" />
<glyph unicode="&#xfb;" horiz-adv-x="1211" d="M537 -14Q424 -14 339 32T206 173T158 408V1118H338V423Q338 294 406 221T591 148Q671 148 734 183T835 285T872 448V1118H1053V0H879V271H903Q851 114 756 50T537 -14ZM461 1282H284V1291L519 1558H690L926 1291V1282H747L605
1457L461 1282Z" />
<glyph unicode="&#xfc;" horiz-adv-x="1211" d="M537 -14Q424 -14 339 32T206 173T158 408V1118H338V423Q338 294 406 221T591 148Q671 148 734 183T835 285T872 448V1118H1053V0H879V271H903Q851 114 756 50T537 -14ZM816 1301Q767 1301 732 1336T697 1420Q697
1469 732 1503T816 1538Q865 1538 899 1504T934 1420Q934 1371 900 1336T816 1301ZM395 1301Q346 1301 311 1336T276 1420Q276 1469 311 1503T395 1538Q444 1538 478 1504T513 1420Q513 1371 479 1336T395 1301Z" />
<glyph unicode="&#xfd;" horiz-adv-x="1151" d="M140 -405L186 -249L205 -254Q260 -268 305 -262T386 -217T449 -99L481 -6L54 1118H251L489 455Q527 351 553 249T608 51H542Q571 147 597 249T661 455L901 1118H1097L606 -167Q572 -256 525 -313T414 -398T272
-426Q224 -426 189 -419T140 -405ZM497 1264L637 1558H838L644 1264H497Z" />
<glyph unicode="&#xfe;" horiz-adv-x="1254" d="M677 -24Q571 -24 506 12T406 95T352 173H338V-418H158V1490H338V939H352Q371 969 405 1014T503 1096T676 1132Q816 1132 922 1062T1089 863T1150 556Q1150 378 1090 248T924 47T677 -24ZM650 137Q755 137 825 193T931
345T967 558Q967 674 932 767T827 916T650 971Q547 971 477 919T372 775T336 558Q336 434 372 339T478 191T650 137Z" />
<glyph unicode="&#xff;" horiz-adv-x="1151" d="M140 -405L186 -249L205 -254Q260 -268 305 -262T386 -217T449 -99L481 -6L54 1118H251L489 455Q527 351 553 249T608 51H542Q571 147 597 249T661 455L901 1118H1097L606 -167Q572 -256 525 -313T414 -398T272
-426Q224 -426 189 -419T140 -405ZM1043 1301Q994 1301 959 1336T924 1420Q924 1469 959 1503T1043 1538Q1092 1538 1126 1504T1161 1420Q1161 1371 1127 1336T1043 1301ZM622 1301Q573 1301 538 1336T503 1420Q503 1469 538 1503T622 1538Q671 1538 705 1504T740
1420Q740 1371 706 1336T622 1301Z" />
<glyph unicode="&#x2013;" horiz-adv-x="1024" d="M1024 719V553H0V719H1024Z" />
<glyph unicode="&#x2014;" horiz-adv-x="2048" d="M2048 719V553H0V719H2048Z" />
<glyph unicode="&#x2018;" horiz-adv-x="534" d="M160 923L316 1490H454L366 923H160Z" />
<glyph unicode="&#x2019;" horiz-adv-x="534" d="M160 923L248 1490H454L298 923H160Z" />
<glyph unicode="&#x201a;" horiz-adv-x="494" d="M120 -358L208 209H414L258 -358H120Z" />
<glyph unicode="&#x201c;" horiz-adv-x="902" d="M160 923L316 1490H454L366 923H160ZM528 923L684 1490H822L734 923H528Z" />
<glyph unicode="&#x201d;" horiz-adv-x="902" d="M160 923L248 1490H454L298 923H160ZM528 923L616 1490H822L666 923H528Z" />
<glyph unicode="&#x201e;" horiz-adv-x="862" d="M120 -359L208 208H414L258 -359H120ZM488 -359L576 208H782L626 -359H488Z" />
<glyph unicode="&#x2022;" horiz-adv-x="1152" d="M576 274Q488 274 415 317T299 433T256 594Q256 683 299 755T415 871T576 914Q665 914 737 871T853 756T896 594Q896 506 853 433T738 317T576 274Z" />
<glyph unicode="&#x2039;" horiz-adv-x="787" d="M501 144L100 616L501 1088H707L313 616L707 144H501Z" />
<glyph unicode="&#x203a;" horiz-adv-x="787" d="M80 144L474 616L80 1088H286L687 616L286 144H80Z" />
</font>
</defs>
</svg>
